#TITLE:Kiss Me;
#SUBTITLE:SDO China lv34 - [N]hok[Q] Simfile;
#ARTIST:C-ute;
#TITLETRANSLIT:;
#SUBTITLETRANSLIT:;
#ARTISTTRANSLIT:;
#CREDIT:[N]hok[Q];
#BANNER:bn.png;
#BACKGROUND:bg.png;
#LYRICSPATH:;
#CDTITLE:cd.png;
#MUSIC:Kiss ME.ogg;
#OFFSET:0.000;
#SAMPLESTART:40.066;
#SAMPLELENGTH:6.908;
#SELECTABLE:YES;
#DISPLAYBPM:101.000:347.000;
#BPMS:0.000=152.025,1.000=151.999,9.000=152.025,10.000=151.999,18.000=101.340,18.500=303.998,19.000=101.340,19.500=303.998,20.000=151.999,29.000=152.025,30.000=151.999,33.000=152.008,34.000=152.069,34.000=151.999,34.375=151.999,37.500=152.008,38.500=151.999,45.500=152.008,46.500=151.999,51.000=303.998,51.500=101.340,52.000=303.998,52.500=101.340,53.000=152.008,54.000=151.999,61.000=135.117,62.000=347.426,64.000=151.999,70.000=152.008,71.000=151.999,78.000=152.008,79.000=151.999,85.750=152.009,86.625=152.008,88.500=152.017,89.500=152.008,94.500=151.999,101.500=152.008,102.500=151.999,109.500=152.008,110.500=151.999,115.500=303.998,116.000=101.333,116.500=303.998,117.000=101.333,117.500=152.008,118.500=151.999,171.500=303.998,172.000=101.333,172.500=151.999,196.000=303.998,196.500=101.325,197.000=303.998,197.500=101.333,198.000=303.998,198.500=101.333,199.000=303.998,199.500=101.333,200.000=151.999,206.000=303.998,206.500=101.333,207.000=303.998,207.500=101.333,208.000=151.999,264.875=151.990,265.875=151.999,265.875=151.999,266.250=151.999,277.375=151.990,278.375=151.999,287.000=151.999,289.688=151.999;
#STOPS:34.000=0.049
,34.375=0.049
,34.750=0.049
,35.125=0.049
,49.500=0.049
,49.875=0.049
,50.250=0.049
,50.625=0.049
,84.000=0.049
,84.875=0.049
,85.750=0.049
,86.625=0.049
,131.500=0.049
,132.375=0.049
,133.250=0.049
,134.125=0.049
,143.000=0.049
,143.375=0.049
,145.250=0.049
,146.125=0.049
,146.500=0.049
,146.875=0.049
,148.750=0.049
,154.125=0.049
,155.000=0.049
,155.875=0.049
,156.750=0.049
,157.625=0.049
,161.000=0.049
,161.875=0.049
,162.750=0.049
,163.625=0.049
,168.500=0.049
,169.375=0.049
,170.250=0.049
,171.125=0.049
,184.500=0.049
,185.375=0.049
,186.250=0.049
,187.125=0.049
,188.000=0.049
,188.875=0.049
,189.750=0.049
,190.625=0.049
,191.000=0.049
,191.375=0.049
,191.750=0.049
,192.125=0.049
,192.500=0.049
,192.875=0.049
,193.250=0.049
,193.625=0.049
,194.000=0.049
,194.375=0.049
,195.250=0.049
,195.625=0.049
,226.000=0.099
,226.750=0.049
,227.625=0.049
,228.500=0.049
,229.375=0.049
,230.250=0.049
,231.125=0.049
,232.000=0.049
,232.875=0.049
,233.750=0.049
,234.625=0.049
,235.500=0.049
,236.375=0.049
,237.250=0.049
,238.125=0.049
,239.000=0.049
,265.875=0.049
,266.250=0.049
,266.625=0.049
,267.000=0.049
,281.375=0.049
,281.750=0.049
,282.125=0.049
,282.500=0.049
,282.875=0.049
,283.250=0.049
,283.625=0.049
,284.000=0.049
,284.375=0.049
,284.750=0.049
,285.125=0.049
,287.313=0.041
,287.896=0.033
,288.438=0.025
,289.063=0.025
;
#BGCHANGES:;
// cache tags:
#FIRSTBEAT:4.000;
#LASTBEAT:289.750;
#SONGFILENAME:Songs/9you/Kiss Me/Kiss ME.sm;
#HASMUSIC:1;
#HASBANNER:1;
#MUSICLENGTH:124.736;
// end cache tags

//---------------dance-single - ----------------
#NOTES:
     dance-single:
     :
     Hard:
     34:
     1.000,1.000,1.000,1.000,1.000,847.000,794.000,138.000,0.000,472.000:
0000
0000
0000
0000
,
2111
0110
0101
0110
0101
0110
0101
0110
0101
0110
0101
0110
0101
0111
0110
0110
,
3112
1010
0110
1010
0113
0101
2110
0101
0110
0101
3110
1010
0112
1010
0110
1010
,
2113
0011
0110
3112
0110
1103
0112
1100
2113
0011
3110
1100
0112
1100
0113
0011
,
1110
0011
0110
1110
0011
0110
0111
1100
0112
0000
0000
0000
2113
0000
0000
0000
,
3111
1100
0110
0011
1110
0011
0110
1100
0111
1100
0110
0011
1110
0011
0110
1100
,
0111
1100
0110
0011
1110
0011
0110
1100
0111
1100
0110
0011
1110
0011
0110
1100
,
0111
1100
0110
1100
0111
1100
0110
0011
1110
0011
0110
0011
1110
0011
0110
1100
,
0111
0000
1100
0000
0110
0000
0011
0000
1110
0000
0011
0000
0110
0000
0011
0000
2110
0000
0000
3211
0000
0000
1321
0000
0000
1132
0000
0000
1113
0000
0011
0000
,
0110
1100
0111
1100
0110
0011
1110
0011
0110
1100
0111
1100
0110
0011
1110
0011
,
0110
1100
0111
1100
0110
1100
0111
1100
0110
0011
1110
0011
0110
0011
1110
0011
,
0110
1100
0111
1100
0110
0011
1110
0011
0110
0011
1110
0011
0110
1100
0111
1100
,
0110
0000
0011
0000
1110
0000
0011
0000
0110
0000
1100
0000
0112
0000
0000
1123
0000
0000
1231
0000
0000
2311
0000
0000
3211
0000
0000
0000
0000
0000
0000
0000
,
1321
0000
0000
0000
2130
0110
0011
0000
3012
0110
1100
0000
1113
0000
0000
0000
,
0011
0000
1100
0000
0000
0000
0110
0000
0011
0000
0110
0000
1110
0111
1110
0000
,
0000
0011
0000
2110
0000
0000
0000
0000
,
3111
0000
1110
0011
0110
0000
1100
0110
0111
0000
1110
0011
0110
0000
1100
0110
,
0111
0000
1110
0011
1110
0000
0111
1100
0110
0000
1110
0011
1110
0000
0011
0110
,
1110
0000
0011
0110
1110
0000
0011
0110
1110
0000
0011
0110
0111
0000
1100
0110
,
0011
0000
1110
0011
0110
0000
1100
0110
0111
0000
1100
0110
0111
0000
1100
0110
,
0111
0000
1100
0110
0111
0000
1100
0110
0011
0000
1110
0011
1110
0000
0111
1100
,
0112
0000
0000
1113
0000
0000
0000
1021
0000
0000
1131
0000
0000
0000
0211
0000
0000
1311
0000
0000
0000
2011
0000
0000
3111
0000
0000
0000
1110
0000
0000
0000
,
0011
0110
1110
0000
0111
1100
0110
0000
1110
0011
1110
0000
0111
1100
0112
0000
,
1100
0110
1103
0000
0111
1100
0112
0000
1110
0110
1113
0000
0111
1100
0112
0000
,
1110
0110
1103
0000
0110
0011
1110
0000
0111
1100
0110
0000
0011
0110
2110
0000
,
0111
0011
3110
0000
0111
1100
0112
0000
1110
0110
1113
0000
0111
1100
0112
0000
,
1100
0110
1113
0000
1100
0110
1110
0000
0011
0110
0111
0000
1110
0011
2110
0000
,
0011
0110
3111
0000
1100
0110
1110
0000
0011
0110
1110
0000
0110
0011
1110
0000
,
0011
0110
1100
0000
0110
1100
0211
0000
1312
0000
2103
0010
3102
0000
1123
0000
,
0000
0000
1231
0000
0000
0000
0312
0110
1100
0000
2103
0110
0011
0000
3111
0000
,
1100
0110
0111
0000
1110
0011
0110
0000
0111
1100
0110
0000
0111
1100
0110
0000
,
1100
0110
0111
0000
1100
0110
1110
0000
0011
0110
1110
0000
0011
0110
1110
0000
,
0011
0000
0110
0000
0111
0000
0000
0000
1110
0000
0011
0000
0110
0000
0000
0000
1110
0000
0011
0000
1110
0000
0000
0000
0111
0000
1100
0000
0111
0000
0000
2110
,
0000
0000
0000
3111
0000
0000
0112
0000
0000
0000
1113
0000
0000
0211
0000
0000
0000
1311
0000
0000
0121
0000
0000
0000
1131
0000
0000
0000
0111
0000
1100
0000
,
0111
0000
1110
0011
0110
0000
1110
0011
0110
0000
1100
0110
0111
0000
1110
0011
,
0110
0000
0000
0000
1110
0000
0011
0000
0110
0000
0000
0000
1110
0000
0011
0000
0110
0000
0000
0000
0011
0000
1100
0000
0112
0000
0000
2113
0000
0000
0000
0000
,
0000
0000
3121
0000
0000
0000
0000
0000
0000
0000
1231
0000
0000
0000
0000
0000
0000
2311
0000
0000
3121
0000
0000
1132
0000
0000
1213
0000
0000
0000
0000
0000
,
0000
0000
2311
0000
0000
3000
0112
0000
0000
1110
0003
0000
0000
1012
0000
0000
0000
0110
0000
0000
0000
1100
0000
0000
0000
1110
0000
0000
0000
1100
0000
0000
,
0000
0110
0000
0000
0000
1100
0000
0000
0000
1110
0000
0000
0000
0110
0000
0000
0000
2113
0000
0000
3112
0000
0000
0003
1210
0000
0000
1321
0000
0000
0030
2101
,
0000
0000
3112
0000
0000
0003
1210
0000
0000
1321
0000
0000
0030
1101
0000
0000
1110
0000
0001
0000
0010
0000
0100
0000
0010
0000
0001
0000
0110
0000
1000
0000
,
0110
0000
0001
0000
0110
0000
1000
0000
0112
0000
0000
0000
0000
0000
0000
1213
0000
0000
0000
0000
0000
0000
2311
0000
0000
0000
0000
0000
0000
3111
0000
0000
,
1011
0000
0000
0000
1110
0000
0111
1000
0100
0010
0100
1000
0110
0001
0110
1000
,
0110
0000
0001
0000
2110
0000
0000
0000
0000
0000
0000
3211
0000
0000
0000
0000
0000
0000
1312
0000
0000
0000
0000
0000
0000
1113
0000
0000
2101
0000
0000
0000
,
0000
0000
3111
1000
0100
0010
0100
1000
0111
1000
0100
0010
0001
0010
0100
0010
,
0100
1000
0111
1000
0100
1000
0111
1000
0100
1000
0111
1000
0100
1000
0111
1000
,
0100
1000
0111
1000
0100
1000
0111
1000
0112
1000
0100
0010
1100
0010
1100
0010
,
1103
0000
0010
0000
2101
0000
0000
3111
0000
0000
0000
1201
0000
0000
1311
0000
0000
0000
0121
0000
0000
1131
0000
0000
0000
0112
0000
0000
1113
0000
0000
0000
,
2110
0000
0000
3111
0000
0000
0000
0211
0000
0000
1311
0000
0000
0000
0121
0000
0000
1131
0000
0000
0000
1102
0000
0000
1113
0000
0000
0111
0000
0000
1110
0000
,
0000
1101
0000
0000
1011
0000
0000
0111
0000
0000
1110
0000
0000
1011
0000
0000
1101
0000
0000
0112
0000
0000
1113
0000
0000
0000
2011
0000
0000
3111
0000
0000
,
2110
3112
1213
2311
,
3111
0000
1110
0011
1110
0000
0111
1100
0112
0000
1110
1100
0113
0000
1110
0011
,
2110
0000
0011
0110
3011
0000
0110
1100
0112
0000
0000
0000
1123
0000
0000
0000
,
2131
0000
0111
0011
3111
0000
1110
0011
2110
0000
0111
0011
3111
0000
1110
0011
,
2110
0000
0011
0110
3011
0000
0110
1100
0112
0000
1100
0110
1103
0000
0111
1100
,
0110
0000
0011
0110
1100
0000
0110
0011
2110
0000
0011
0110
3112
0000
1100
0110
,
2113
0000
0011
0110
3112
0000
1100
0110
1113
0000
0011
0110
1110
0000
0112
1100
,
0110
0000
0000
0000
1110
0000
1100
0000
1113
0000
0000
0000
1110
0000
0011
0000
2110
0000
0111
3000
0000
0000
1021
0000
0000
1131
0000
0000
0000
1201
0000
0000
,
1311
0000
0000
0000
0112
0000
0000
1113
0000
0000
0000
0121
0000
0000
1131
0000
0000
0000
1210
0000
0000
1311
0000
0000
0000
1120
0000
0000
1131
0000
0000
0000
,
1012
0000
0000
1113
0000
0000
0000
0121
0000
0000
1131
0000
0000
0000
1201
0000
0000
1311
0000
0000
0000
2110
0000
0000
3111
0000
0000
0000
1012
0000
0000
1113
,
0000
0000
0000
0211
0000
0000
1311
0000
0000
0000
2011
0000
0000
3111
0000
0000
0000
0112
0000
0000
1113
0000
0000
0000
1021
0000
0000
1131
0000
0000
0000
0111
,
0000
1110
0000
0111
0000
0000
0000
0000
0000
0000
0000
0000
0000
0000
0000
0110
0000
0000
0000
1100
0000
0000
0000
0110
0000
0000
0000
0012
0000
0000
0000
1110
,
0000
0110
0000
2103
0000
0110
0000
0011
0000
0110
0000
0011
0000
0110
0000
0011
0000
0110
0000
0011
0000
0110
0000
0011
0000
0110
0000
3111
0000
1100
0000
0112
,
0000
1100
0000
0110
0000
1100
0000
0113
0000
0011
0000
2110
0000
0011
0000
0110
0000
0011
0000
3110
0000
1100
0000
0112
0000
1100
0000
0110
0000
1100
0000
1113
,
0000
0011
0000
0110
0000
0011
0000
1110
0000
0011
0000
0110
0000
1100
0000
0111
0000
1100
0000
0110
0000
1100
0000
0111
0000
1100
0000
0110
0000
0011
0000
1110
,
0000
0011
0000
0110
0000
1100
0000
0111
0000
1100
0000
0110
0000
1100
0000
0111
0000
1100
0000
0110
0000
0011
0000
1110
0000
0011
0000
0110
0000
0011
0000
1110
,
0000
0011
0000
0110
0000
0011
0000
1110
0000
0011
0000
0110
0000
1100
0000
0111
0000
1100
0000
0110
0000
1100
0000
0111
0000
1100
0000
0110
0000
0011
0000
1110
,
0000
0011
0000
0110
0000
1100
0000
0111
0000
1100
0000
0110
0000
0011
0000
2110
0000
0000
3121
0000
0000
1231
0000
0000
1312
0000
0000
1113
0000
0011
0000
0110
,
0000
0011
0000
1110
0000
0011
0000
0110
0000
1100
0000
0111
0000
1100
0000
0110
0000
1100
0000
0111
0000
1100
0000
0110
0000
0011
0000
1110
0000
0011
0000
0110
,
0000
1100
0000
0111
0000
1100
0000
0110
0000
1100
0000
0111
0000
1100
0000
0110
0000
0011
0000
1110
0000
0011
0000
0110
0000
1100
0000
0111
0000
1100
0000
0110
,
0000
1100
0000
0111
0000
1100
0000
0110
0000
1100
0000
0111
0000
1100
0000
0110
0000
0011
0000
1110
0000
0011
0000
0110
0000
1100
0000
0111
0000
1100
0000
0110
,
0000
0011
0000
1110
0000
0011
0000
0110
0000
1100
0000
0112
0000
0000
1213
0000
0000
1321
0000
0000
2131
0000
0000
3112
0000
0000
1213
0000
0000
1321
0000
0000
,
2131
0000
0000
0000
0000
0000
0000
0000
0000
0000
0000
0000
0000
0000
0000
0000
0000
0000
3112
0000
0000
0000
0000
0000
0000
0000
0000
0000
0000
0000
0000
0000
0000
0000
0000
0000
1213
0000
0000
0000
0000
0000
0000
0000
0000
0000
0000
0000
0000
0000
0000
0000
0000
0000
1321
0000
0000
0000
0000
0000
0000
0000
0000
0000
0000
0000
0000
0000
0000
0000
0000
0000
2131
0000
0000
0000
0000
0000
0000
0000
0000
0000
0000
0000
0000
0000
0000
0000
0000
0000
0000
0000
0000
0000
0000
0000
0000
0000
0000
0000
0000
0000
0000
0000
0000
0000
0000
0000
0000
0000
0000
0000
0000
0000
0000
0000
0000
0000
0000
0000
0000
0000
0000
0000
0000
0000
3111
0000
0000
0000
0000
0000
0000
0000
0000
0000
0000
0000
0000
0000
0000
0000
0000
0000
0000
0000
0000
0000
0000
0000
0000
0000
0000
0000
0000
0000
0000
0000
0000
1110
0000
0000
0000
0000
0000
0000
0000
0000
0000
0000
0000
0000
0000
0000
0000
0000
0000
0000
0000
0000
0000
0000
0000
0000
0000
0000
0000
0111
0000
0000
0000
0000
,
0000
0000
0000
0000
0000
0000
0000
1101
0000
0000
0000
0000
0000
0000
0000
0000
0000
1011
0000
0000
0000
0000
0000
0000
0000
0000
0000
1111
0000
0000
0000
0000
0000
0000
0000
0000
0000
0000
0000
0000
0000
0000
0000
0000
0000
0000
0000
0000
0000
0000
0000
0000
0000
0000
0000
0000
0000
0000
0000
0000
0000
0000
0000
0000
,
0000
0000
0000
0000
,
0000
0000
0000
0000
,
0000
0000
0000
0000
,
0000
0000
0000
0000
,
0000
0000
0000
0000
,
0000
0000
0000
0000
,
0000
0000
0000
0000
,
0000
0000
0000
0000
,
0000
0000
0000
0000
,
0000
0000
0000
0000
,
0000
0000
0000
0000
,
0000
0000
0000
0000
,
0000
0000
0000
0000
,
0000
0000
0000
0000
,
0000
0000
0000
0000
,
0000
0000
0000
0000
,
0000
0000
0000
0000
,
0000
0000
0000
0000
,
0000
0000
0000
0000
;

//---------------dance-single - ----------------
#NOTES:
     dance-single:
     :
     Edit:
     36:
     1.000,1.000,1.000,1.000,1.000,847.000,794.000,134.000,0.000,467.000:
0000
0000
0000
0000
,
1211
1001
0011
1001
0011
1001
0011
1001
0011
1001
0011
1001
0011
1011
1001
1001
,
1321
1100
1001
1100
1031
0011
1201
0011
1001
0011
1301
1100
1021
1100
1001
1100
,
1231
1010
1001
1321
1001
0131
1021
0101
1231
1010
1301
0101
1021
0101
1031
1010
,
1101
1010
1001
1101
1010
1001
1011
0101
1021
0000
0000
0000
1231
0000
0000
0000
,
1311
0101
1001
1010
1101
1010
1001
0101
1011
0101
1001
1010
1101
1010
1001
0101
,
1011
0101
1001
1010
1101
1010
1001
0101
1011
0101
1001
1010
1101
1010
1001
0101
,
1011
0101
1001
0101
1011
0101
1001
1010
1101
1010
1001
1010
1101
1010
1001
0101
,
1011
0000
0101
0000
1001
0000
1010
0000
1101
0000
1010
0000
1001
0000
1010
0000
1201
0000
0000
1312
0000
0000
2113
0000
0000
3121
0000
0000
1131
0000
1010
0000
,
1001
0101
1011
0101
1001
1010
1101
1010
1001
0101
1011
0101
1001
1010
1101
1010
,
1001
0101
1011
0101
1001
0101
1011
0101
1001
1010
1101
1010
1001
1010
1101
1010
,
1001
0101
1011
0101
1001
1010
1101
1010
1001
1010
1101
1010
1001
0101
1011
0101
,
1001
0000
1010
0000
1101
0000
1010
0000
1001
0000
0101
0000
1021
0000
0000
2131
0000
0000
3112
0000
0000
1213
0000
0000
1312
0000
0000
0000
0000
0000
0000
0000
,
2113
0000
0000
0000
3201
1001
1010
0000
1320
1001
0101
0000
1131
0000
0000
0000
,
1010
0000
0101
0000
0000
0000
1001
0000
1010
0000
1001
0000
1101
1011
1101
0000
,
0000
1010
0000
1201
0000
0000
0000
0000
,
1311
0000
1101
1010
1001
0000
0101
1001
1011
0000
1101
1010
1001
0000
0101
1001
,
1011
0000
1101
1010
1101
0000
1011
0101
1001
0000
1101
1010
1101
0000
1010
1001
,
1101
0000
1010
1001
1101
0000
1010
1001
1101
0000
1010
1001
1011
0000
0101
1001
,
1010
0000
1101
1010
1001
0000
0101
1001
1011
0000
0101
1001
1011
0000
0101
1001
,
1011
0000
0101
1001
1011
0000
0101
1001
1010
0000
1101
1010
1101
0000
1011
0101
,
1021
0000
0000
1131
0000
0000
0000
2110
0000
0000
3111
0000
0000
0000
1012
0000
0000
1113
0000
0000
0000
1210
0000
0000
1311
0000
0000
0000
1101
0000
0000
0000
,
1010
1001
1101
0000
1011
0101
1001
0000
1101
1010
1101
0000
1011
0101
1021
0000
,
0101
1001
0131
0000
1011
0101
1021
0000
1101
1001
1131
0000
1011
0101
1021
0000
,
1101
1001
0131
0000
1001
1010
1101
0000
1011
0101
1001
0000
1010
1001
1201
0000
,
1011
1010
1301
0000
1011
0101
1021
0000
1101
1001
1131
0000
1011
0101
1021
0000
,
0101
1001
1131
0000
0101
1001
1101
0000
1010
1001
1011
0000
1101
1010
1201
0000
,
1010
1001
1311
0000
0101
1001
1101
0000
1010
1001
1101
0000
1001
1010
1101
0000
,
1010
1001
0101
0000
1001
0101
1012
0000
1123
0000
0231
1000
0321
0000
2131
0000
,
0000
0000
3112
0000
0000
0000
1023
1001
0101
0000
0131
1001
1010
0000
1101
0000
,
1010
1001
1101
0000
1011
0101
1001
0000
1101
1010
1001
0000
1101
1010
1001
0000
,
1010
1001
1101
0000
1010
1001
1011
0000
0101
1001
1011
0000
0101
1001
1011
0000
,
0101
0000
1001
0000
1101
0000
0000
0000
1011
0000
0101
0000
1001
0000
0000
0000
1011
0000
0101
0000
1011
0000
0000
0000
1101
0000
1010
0000
1101
0000
0000
1201
,
0000
0000
0000
1311
0000
0000
1021
0000
0000
0000
1131
0000
0000
1012
0000
0000
0000
1113
0000
0000
2011
0000
0000
0000
3111
0000
0000
0000
1101
0000
1010
0000
,
1101
0000
1011
0101
1001
0000
1011
0101
1001
0000
1010
1001
1101
0000
1011
0101
,
1001
0000
0000
0000
1011
0000
0101
0000
1001
0000
0000
0000
1011
0000
0101
0000
1001
0000
0000
0000
0101
0000
1010
0000
1021
0000
0000
1231
0000
0000
0000
0000
,
0000
0000
2311
0000
0000
0000
0000
0000
0000
0000
3112
0000
0000
0000
0000
0000
0000
1213
0000
0000
2311
0000
0000
3121
0000
0000
1132
0000
0000
0000
0000
0000
,
0000
0000
1213
0000
0000
0300
1021
0000
0000
1101
0030
0000
0000
1120
0000
0000
0000
1001
0000
0000
0000
0101
0000
0000
0000
1101
0000
0000
0000
0101
0000
0000
,
0000
1001
0000
0000
0000
0101
0000
0000
0000
1101
0000
0000
0000
1001
0000
0000
0000
1231
0000
0000
1321
0000
0000
0030
1102
0000
0000
2113
0000
0000
3000
0211
,
0000
0000
1321
0000
0000
0030
1102
0000
0000
2113
0000
0000
3000
0111
0000
0000
1101
0000
0010
0000
1000
0000
0001
0000
1000
0000
0010
0000
1001
0000
0100
0000
,
1001
0000
0010
0000
1001
0000
0100
0000
1021
0000
0000
0000
0000
0000
0000
1132
0000
0000
0000
0000
0000
0000
1213
0000
0000
0000
0000
0000
0000
1311
0000
0000
,
1110
0000
0000
0000
1101
0000
1011
0100
0001
1000
0001
0100
1001
0010
1001
0100
,
1001
0000
0010
0000
1201
0000
0000
0000
0000
0000
0000
1312
0000
0000
0000
0000
0000
0000
1123
0000
0000
0000
0000
0000
0000
1131
0000
0000
0111
0000
0000
0000
,
0000
0000
1101
0010
1000
0001
1000
0010
1101
0010
1000
0001
0100
0001
1000
0001
,
1000
0010
1101
0010
1000
0010
1101
0010
1000
0010
1101
0010
1000
0010
1101
0010
,
1000
0010
1101
0010
1000
0010
1101
0010
1201
0010
1000
0001
1010
0001
1010
0001
,
1310
0000
1000
0000
1210
0000
0000
1311
0000
0000
0000
2110
0000
0000
3111
0000
0000
0000
1012
0000
0000
1113
0000
0000
0000
1021
0000
0000
1131
0000
0000
0000
,
1201
0000
0000
1311
0000
0000
0000
2011
0000
0000
3111
0000
0000
0000
1012
0000
0000
1113
0000
0000
0000
1120
0000
0000
1131
0000
0000
1011
0000
0000
1101
0000
,
0000
1110
0000
0000
0111
0000
0000
1011
0000
0000
1101
0000
0000
0111
0000
0000
1110
0000
0000
1021
0000
0000
1131
0000
0000
0000
0211
0000
0000
1311
0000
0000
,
1201
1321
2131
3111
,
1101
0000
1011
1100
1011
0000
1101
0011
1201
0000
1011
0011
1301
0000
1011
1100
,
1021
0000
1100
1001
1130
0000
1001
0011
1201
0000
0000
0000
2311
0000
0000
0000
,
3121
0000
1101
1100
1131
0000
1011
1100
1021
0000
1101
1100
1131
0000
1011
1100
,
1021
0000
1100
1001
1130
0000
1001
0011
1201
0000
0011
1001
0311
0000
1101
0011
,
1001
0000
1100
1001
0011
0000
1001
1100
1021
0000
1100
1001
1231
0000
0011
1001
,
1321
0000
1100
1001
1231
0000
0011
1001
1311
0000
1100
1001
1011
0000
1201
0011
,
1001
0000
0000
0000
1011
0000
0011
0000
1311
0000
0000
0000
1011
0000
1100
0000
1201
0000
1101
0300
0000
0000
0112
0000
0000
1113
0000
0000
0000
2110
0000
0000
,
3111
0000
0000
0000
1201
0000
0000
1311
0000
0000
0000
1102
0000
0000
1113
0000
0000
0000
2011
0000
0000
3111
0000
0000
0000
1012
0000
0000
1113
0000
0000
0000
,
0211
0000
0000
1311
0000
0000
0000
1102
0000
0000
1113
0000
0000
0000
2110
0000
0000
3111
0000
0000
0000
1021
0000
0000
1131
0000
0000
0000
0211
0000
0000
1311
,
0000
0000
0000
2101
0000
0000
3111
0000
0000
0000
0121
0000
0000
1131
0000
0000
0000
1201
0000
0000
1311
0000
0000
0000
0112
0000
0000
1113
0000
0000
0000
1101
,
0000
1011
0000
1101
0000
0000
0000
0000
0000
0000
0000
0000
0000
0000
0000
1001
0000
0000
0000
0101
0000
0000
0000
1001
0000
0000
0000
1020
0000
0000
0000
1101
,
0000
1001
0000
0231
0000
1001
0000
1010
0000
1001
0000
1010
0000
1001
0000
1010
0000
1001
0000
1010
0000
1001
0000
1010
0000
1001
0000
1311
0000
0101
0000
1021
,
0000
0101
0000
1001
0000
0101
0000
1031
0000
1010
0000
1201
0000
1010
0000
1001
0000
1010
0000
1301
0000
0101
0000
1011
0000
0101
0000
1001
0000
0011
0000
1011
,
0000
1100
0000
1001
0000
1100
0000
1011
0000
1100
0000
1001
0000
0011
0000
1101
0000
0011
0000
1001
0000
0011
0000
1101
0000
0011
0000
1001
0000
1100
0000
1011
,
0000
1100
0000
1001
0000
0011
0000
1101
0000
0011
0000
1001
0000
0011
0000
1101
0000
0011
0000
1001
0000
1100
0000
1011
0000
1100
0000
1001
0000
1100
0000
1011
,
0000
1100
0000
1001
0000
1100
0000
1011
0000
1100
0000
1001
0000
0011
0000
1101
0000
0011
0000
1001
0000
0011
0000
1101
0000
0011
0000
1001
0000
1100
0000
1011
,
0000
1100
0000
1001
0000
0011
0000
1101
0000
0011
0000
1001
0000
1100
0000
1021
0000
0000
2131
0000
0000
3112
0000
0000
1213
0000
0000
1311
0000
1100
0000
1001
,
0000
1100
0000
1011
0000
1100
0000
1001
0000
0011
0000
1101
0000
0011
0000
1001
0000
0011
0000
1101
0000
0011
0000
1001
0000
1100
0000
1011
0000
1100
0000
1001
,
0000
0011
0000
1101
0000
0011
0000
1001
0000
0011
0000
1101
0000
0011
0000
1001
0000
1100
0000
1011
0000
1100
0000
1001
0000
0011
0000
1101
0000
0011
0000
1001
,
0000
0011
0000
1101
0000
0011
0000
1001
0000
0011
0000
1101
0000
0011
0000
1001
0000
1100
0000
1011
0000
1100
0000
1001
0000
0011
0000
1101
0000
0011
0000
1001
,
0000
1100
0000
1011
0000
1100
0000
1001
0000
0011
0000
1201
0000
0000
1312
0000
0000
2113
0000
0000
3121
0000
0000
1231
0000
0000
1312
0000
0000
2113
0000
0000
,
3121
0000
0000
0000
0000
0000
0000
0000
0000
0000
0000
0000
0000
0000
0000
0000
0000
0000
1231
0000
0000
0000
0000
0000
0000
0000
0000
0000
0000
0000
0000
0000
0000
0000
0000
0000
1312
0000
0000
0000
0000
0000
0000
0000
0000
0000
0000
0000
0000
0000
0000
0000
0000
0000
2113
0000
0000
0000
0000
0000
0000
0000
0000
0000
0000
0000
0000
0000
0000
0000
0000
0000
3121
0000
0000
0000
0000
0000
0000
0000
0000
0000
0000
0000
0000
0000
0000
0000
0000
0000
0000
0000
0000
0000
0000
0000
0000
0000
0000
0000
0000
0000
0000
0000
0000
0000
0000
0000
0000
0000
0000
0000
0000
0000
0000
0000
0000
0000
0000
0000
0000
0000
0000
0000
0000
0000
1131
0000
0000
0000
0000
0000
0000
0000
0000
0000
0000
0000
0000
0000
0000
0000
0000
0000
0000
0000
0000
0000
0000
0000
0000
0000
0000
0000
0000
0000
0000
0000
0000
1011
0000
0000
0000
0000
0000
0000
0000
0000
0000
0000
0000
0000
0000
0000
0000
0000
0000
0000
0000
0000
0000
0000
0000
0000
0000
0000
0000
1101
0000
0000
0000
0000
,
0000
0000
0000
0000
0000
0000
0000
0111
0000
0000
0000
0000
0000
0000
0000
0000
0000
1110
0000
0000
0000
0000
0000
0000
0000
0000
0000
1111
0000
0000
0000
0000
0000
0000
0000
0000
0000
0000
0000
0000
0000
0000
0000
0000
0000
0000
0000
0000
0000
0000
0000
0000
0000
0000
0000
0000
0000
0000
0000
0000
0000
0000
0000
0000
,
0000
0000
0000
0000
,
0000
0000
0000
0000
,
0000
0000
0000
0000
,
0000
0000
0000
0000
,
0000
0000
0000
0000
,
0000
0000
0000
0000
,
0000
0000
0000
0000
,
0000
0000
0000
0000
,
0000
0000
0000
0000
,
0000
0000
0000
0000
,
0000
0000
0000
0000
,
0000
0000
0000
0000
,
0000
0000
0000
0000
,
0000
0000
0000
0000
,
0000
0000
0000
0000
,
0000
0000
0000
0000
,
0000
0000
0000
0000
,
0000
0000
0000
0000
,
0000
0000
0000
0000
;

//---------------dance-single - ----------------
#NOTES:
     dance-single:
     :
     Medium:
     1:
     1.000,1.000,1.000,0.008,1.000,754.000,330.000,1.000,0.000,16.000:
0000
0000
0000
0000
,
0000
0000
0001
0010
0100
1000
0100
0010
0001
0010
0001
0010
1100
0000
0011
0011
,
0100
1000
0110
0001
0010
0000
0011
0100
1000
0110
0000
0010
0001
0010
0001
0110
,
1000
0000
0110
0000
0010
0001
0010
0001
0010
0100
1000
0100
0010
0010
0000
0001
,
0010
0011
0000
0100
1000
0010
0010
0000
0001
0010
0100
1000
0100
0010
0000
0000
,
0000
0101
0001
0010
0100
1000
0110
0001
0010
0000
0011
0100
1000
0110
0000
0011
,
0000
0001
0010
0100
1000
0000
0110
0001
0010
0001
0010
0100
1000
0010
0100
0010
,
0001
0010
0001
0010
0100
1000
0110
0000
0010
0001
0010
0001
0000
0011
0100
1000
,
0100
0010
0010
0000
0001
0000
1001
0000
1001
0010
0100
0110
0101
0101
0000
0010
,
0001
0010
0100
1000
0110
0000
0010
0000
0011
0000
0101
0010
1000
0110
0000
0010
,
0001
0010
0100
1000
0111
0010
0000
0001
0010
0001
0010
0100
1000
0110
0010
0000
,
0011
0000
0001
0010
0100
1000
0110
0000
0011
0000
0001
0010
0100
0000
1001
0110
,
0000
0011
0000
0011
0100
0011
0100
0010
0010
1000
0001
1001
0000
0110
0000
0101
,
0001
0000
0110
0000
0000
1001
0000
0000
0000
0110
0000
0000
0001
0100
0010
0100
,
1000
0000
0110
0000
0001
0010
0000
0011
0000
0100
1000
0110
0000
0000
0000
0001
,
0010
0000
0000
0011
0100
2000
0100
0010
3000
0010
0000
0000
0000
0001
0010
0000
,
0000
0100
1010
0100
0011
0000
0000
0011
1100
0010
0100
0011
0000
0001
0010
1100
,
0001
0010
0000
1100
0001
0010
0000
1100
0010
1100
0010
0001
0010
0000
1100
0010
,
0100
0011
0000
0011
0100
1000
0001
0010
1100
0000
0001
0010
1100
0001
0010
0000
,
1100
0001
0010
0000
1100
0010
0100
1010
0000
0111
0000
0000
1110
0000
0011
0001
,
0110
0000
0001
0110
0000
0001
0000
1000
0011
0100
0000
0110
0000
1001
0000
1001
,
0000
0110
0101
0000
0101
0000
0110
0000
1001
1001
0000
0110
0000
0101
0000
0001
,
0010
0100
1010
0100
0010
0001
0010
0000
0001
0010
0100
1000
0110
0000
0010
0010
,
0100
0001
0010
0000
0011
0100
1000
0110
0000
0011
0000
0111
0000
0001
1000
0001
,
0010
0100
0000
0010
0110
0000
0001
0010
0101
0010
0000
0010
0100
0010
0100
0011
,
0000
0001
1000
0000
0001
0010
0100
0011
0000
0100
1010
0100
0010
0001
0010
0001
,
0010
0100
1000
0111
0000
0001
0010
0100
1000
0001
0010
1000
0101
0010
0100
0010
,
0000
1110
0000
0010
0100
0001
0000
0001
0010
0100
1000
0110
0000
0010
0110
0000
,
0000
0001
0000
0011
0100
1000
0110
0000
0010
0100
0010
0100
0000
0000
1001
0000
,
0000
0000
0110
0000
0000
0000
0101
0000
0000
0101
0000
0000
0000
0001
0110
1000
,
0000
0110
0000
0011
0000
0001
0010
0100
1000
0110
0000
0010
0000
0011
0000
0100
,
1000
0110
0000
0010
0001
0010
0000
0011
0000
0100
1000
0110
0000
0010
0001
0010
,
0000
0011
0000
0100
1010
0000
0000
0001
0000
0001
1000
0001
0000
0110
0101
0000
,
0101
0000
1010
0000
1010
0101
0000
0101
0000
0110
0110
0000
0001
0000
0101
0010
,
1000
0000
0110
0000
0011
0100
0011
0000
0101
1010
0000
0001
0110
0000
0001
0010
,
0100
1000
0011
0100
0000
0111
0000
0111
0000
0000
0000
0101
0000
0000
0000
0110
,
0000
0000
0110
0000
0000
0101
0000
0000
1010
0000
1010
0001
0100
0111
0000
0000
,
0000
0101
0000
0101
0000
1010
0000
1010
0000
0101
0000
0101
0000
0110
0000
1001
,
0000
1001
0000
1001
0000
0000
0000
0110
0000
0110
1001
0000
0110
0000
0101
0000
,
0101
0101
0000
0101
0000
0101
0000
1010
0000
0000
0000
1001
0000
0000
0000
0110
,
0000
0110
0000
0101
0101
0000
0000
1010
0000
0000
0000
1010
0000
0110
0000
0101
,
0000
0000
0000
0000
0101
0000
0000
0000
1010
0000
0000
0101
0000
0110
0000
1001
,
0000
1001
0000
0000
0110
0000
0110
0101
0000
1001
0000
0001
1000
1001
0000
0000
,
0000
0001
0010
0101
0010
0100
1000
0110
0001
0010
0000
0011
0000
0100
1010
0100
,
0000
0011
0100
1000
0110
0001
0010
0001
0010
0000
1100
0000
0110
0010
0000
0011
,
0000
0100
0001
1100
0010
0000
0010
0101
0000
0010
0100
1001
0010
0100
0010
0000
,
1000
0001
1001
0000
0110
0000
0101
0000
0110
1001
0000
0000
0110
0101
0000
1001
,
0000
0110
1001
0000
0110
0000
0101
1010
0000
0101
0000
0110
1001
0000
0110
1001
,
0000
0110
0101
0000
1010
0101
0000
1010
0101
0000
0110
1001
0000
0110
0000
0101
,
1001
0110
1001
1001
,
0110
0110
0000
0011
0000
0100
1000
0110
0000
0010
0100
0001
0010
0000
0100
1000
,
0110
0000
0011
0000
0100
1010
0100
0000
0000
1001
0000
0000
1111
0000
0000
0000
,
1001
0000
0110
0000
0011
0100
1000
0110
0000
0001
0010
0000
0001
0010
0100
0000
,
1010
0000
0010
0100
0001
0000
0000
0001
0000
1010
0000
0010
0100
0001
0000
0010
,
0000
0100
1000
0010
0100
0010
0000
0001
0010
0000
0011
0000
0100
1000
0100
0010
,
0000
0011
0000
0100
1000
0000
0110
0001
0010
1100
0000
0010
0000
0010
0000
1101
,
0010
0100
0010
0000
0000
1001
0000
1001
0000
0110
0101
0000
0101
0000
1010
1001
,
0000
0000
0110
1001
0000
0110
0000
1001
0000
0110
1001
0000
0110
0000
1001
0000
,
0110
1001
0000
0110
0001
1000
0000
0010
0101
0000
1001
0000
0110
0000
0101
1010
,
0000
0101
0000
1001
0000
0110
1001
0000
0010
0100
0101
0000
0101
1001
0000
1010
,
0000
0000
0000
0000
0000
0000
0000
0000
0000
0000
0001
0010
1100
0000
0110
0001
,
0010
0000
0101
0010
0000
0011
0000
1100
0110
0000
0010
0000
0001
0010
0001
0010
,
0100
1000
0110
0000
0011
0000
0100
0010
0000
0001
0010
0001
0010
1100
0001
0010
,
0000
0110
0000
1101
0010
0001
0010
0000
1100
0010
0100
0010
0001
0010
0001
0110
,
1000
0100
0010
0001
0010
0001
0010
0000
0001
0110
1000
0110
0000
0011
0000
0001
,
0010
0001
0010
0100
1000
0110
0000
0011
0000
0001
0010
0000
0111
0000
0111
0000
,
0001
0000
0001
1010
0000
0110
0000
0100
1001
0001
0110
0000
0101
0101
0000
0010
,
0100
1011
0000
0100
0010
0100
0011
0001
0010
0100
1010
0000
0110
0000
0110
0000
,
0010
0000
0011
0100
0000
1110
0000
0010
0000
0101
0010
0000
0011
0000
0100
1000
,
0110
0000
0010
0100
0011
0001
0000
1001
0000
0010
0000
0110
0000
0001
1010
0000
,
0011
1000
0010
1000
0010
0000
0101
0101
0000
1010
1001
0000
0110
0101
0000
1001
,
0110
0000
0101
1001
0000
0110
0110
0000
0000
1001
0000
0000
0110
0000
0000
0000
,
0101
0000
0000
1010
0000
0000
0000
0000
0000
0000
0000
0000
0000
0000
0000
0000
;

//---------------dance-single - ----------------
#NOTES:
     dance-single:
     :
     Easy:
     1:
     1.000,1.000,1.000,0.024,1.000,665.000,275.000,3.000,0.000,16.000:  // measure 1
0000
0000
0000
0000
,  // measure 2
0000
0000
0000
0000
0001
0100
0000
0010
1000
0010
0000
0100
0001
0100
0000
0010
,  // measure 3
1000
0010
0000
0100
0000
0001
0100
0010
0000
1000
0010
0000
0100
0001
0100
0000
,  // measure 4
0010
0100
0010
0000
1001
0000
0001
0010
0100
0000
1000
0100
0010
0010
0000
0001
,  // measure 5
0010
0000
0100
1000
0100
0010
0000
0010
0010
0000
0010
0000
0100
0000
0001
0000
,  // measure 6
0010
0000
0100
1000
0110
0000
0001
0010
0000
0001
0010
0100
1000
0000
0110
0000
,  // measure 7
0000
0010
0002
0010
0000
0010
0100
1003
0100
0010
0000
0001
0010
0000
0001
0010
,  // measure 8
0000
0100
1000
0100
0010
0000
0010
0001
0000
0010
0001
0010
0000
1100
0000
0110
,  // measure 9
0000
0001
0010
0000
0011
0000
0000
0110
0000
1001
1001
0110
0000
0110
0000
0001
,  // measure 10
0000
0001
0010
0100
1000
0110
0000
0000
0011
0000
0001
0010
0100
1000
0000
0100
,  // measure 11
0010
0010
0000
0001
0010
0000
0011
0000
0100
0110
0000
0010
0001
0010
0100
1000
,  // measure 12
0100
0010
0000
0010
0001
0010
0000
0011
0000
1100
0000
0100
0010
0010
0000
0001
,  // measure 13
0010
0000
0011
0000
0110
0000
0101
0000
1001
0000
1010
0101
0000
0000
0101
0000
,  // measure 14
0000
1010
0000
0000
0101
0000
0000
0000
0000
0101
0000
0000
0000
1010
0000
0000
,  // measure 15
0101
0000
0101
0000
1010
0000
0000
1001
1000
0001
0000
1001
0000
0000
0000
0000
,  // measure 16
0010
0000
0110
0010
0000
0000
0101
0101
0000
0000
0000
0000
0000
0000
0000
0001
,  // measure 17
0110
1000
0000
0000
0011
0000
0100
0001
1110
0000
0000
0110
0001
0000
0010
0000
,  // measure 18
0111
0000
0000
0110
0000
0000
1000
0101
0010
0000
0001
0010
0100
1000
0100
0000
,  // measure 19
0010
0001
0010
0000
0001
0010
0000
0100
0001
0010
0100
0000
1001
0010
0000
0100
,  // measure 20
0011
0000
0100
0010
0001
0010
0000
0100
0010
0000
0100
0020
0000
0001
0030
0100
,  // measure 21
0011
1000
0100
0000
1010
0100
0010
0000
0001
0010
0000
0011
0100
0001
0100
0000
,  // measure 22
1001
1010
0000
0000
0101
0100
0010
1001
0000
0110
0000
1001
0000
1001
0000
0000
,  // measure 23
0001
0010
0000
1100
0110
0000
0001
0010
0000
0001
0010
0000
0011
0000
0100
1000
,  // measure 24
0100
0010
0000
0011
0000
0001
0010
0000
0001
0010
0100
0010
0100
0000
1001
0000
,  // measure 25
0000
0010
0000
0010
0000
0101
0110
0000
0000
0001
0100
0000
0001
0010
0000
0000
,  // measure 26
0011
0000
1000
0000
0010
0100
0000
0011
0000
0001
0100
0010
0100
0000
1001
0000
,  // measure 27
0000
0000
0101
0000
0101
0000
1010
0000
0000
0101
0000
0101
0000
0011
0000
0000
,  // measure 28
0101
1010
0000
0010
0000
0000
0000
0110
0110
0000
0001
0000
0001
0010
0000
0111
,  // measure 29
1000
0000
0100
0010
0000
0011
0000
0000
0011
0000
0011
0000
0100
1000
0000
0100
,  // measure 30
0010
0000
0000
0111
0000
0000
0000
0111
0000
0000
0001
0100
0000
0000
0110
0000
,  // measure 31
0000
0000
1001
0000
1001
0010
0000
0100
0001
0001
0000
0000
0111
0000
0000
0001
,  // measure 32
0110
0000
0000
1101
0010
0000
0000
0110
0001
0000
0000
0011
0000
0100
0011
0000
,  // measure 33
0000
0100
1010
0000
0111
0000
0001
0010
0000
0010
0001
0100
1000
0100
0010
0010
,  // measure 34
0000
0100
0001
0101
0000
1010
1000
0001
0000
0101
0100
0001
0000
0010
0000
0000
,  // measure 35
0011
0100
1000
0010
0100
0000
0011
0000
0000
0011
0000
0000
0011
0000
0100
0000
,  // measure 36
1000
0011
0000
0000
0011
0000
0100
0010
0000
0100
0000
0000
1001
0000
0000
0110
,  // measure 37
0000
0110
0000
0000
0000
1001
1001
0000
0000
0110
0110
0000
0101
0000
0101
0000
,  // measure 38
0000
1010
0000
1010
0000
0101
0000
0001
0000
0101
0000
0000
0002
0000
0000
0013
,  // measure 39
0000
0010
0000
0101
0000
0100
0001
0000
1011
0000
1001
0000
0110
0000
0101
0000
,  // measure 40
1011
0000
1001
0101
0000
0110
0000
0101
0000
0000
0000
1010
0000
0000
0000
0101
,  // measure 41
0101
0000
0000
1010
1000
0001
0000
0000
0110
0000
0000
1001
0000
0000
0000
0110
,  // measure 42
0110
0000
1001
0000
0110
0000
0101
0101
,  // measure 43
0000
1010
1010
0000
0000
0101
0000
0101
0000
1001
0000
1001
0000
0000
0110
0000
,  // measure 44
0000
0000
1001
0000
0000
0000
0000
0110
0000
0101
0010
0000
0100
1000
0110
0000
,  // measure 45
0001
0010
0000
0000
0011
0000
0001
0010
0100
0000
1000
0100
0000
0001
0010
0000
,  // measure 46
0011
0000
0001
0010
0100
1000
0100
0010
0000
0011
0000
0000
0011
0000
0000
0011
,  // measure 47
0000
1100
0101
0000
0110
0000
1001
0000
1010
0100
0001
1000
0010
0100
0001
0000
,  // measure 48
1010
0101
0000
0000
1011
0000
1001
0110
0000
1001
0000
0110
1001
0000
0110
1001
,  // measure 49
0000
0110
1001
0000
0110
0001
0100
0101
1010
0000
1001
0000
0110
1001
0000
1001
,  // measure 50
0110
0000
0000
0101
1000
0001
0000
0000
1001
0000
0000
0000
0000
0110
0000
0000
,  // measure 51
0101
0000
0101
0000
0010
0000
1000
0000
0110
0000
0011
0000
0000
0011
0000
0100
,  // measure 52
1000
0000
0111
0000
0000
0011
0000
0000
0011
0000
0100
1000
0100
0010
0000
0011
,  // measure 53
0000
0001
0010
0000
0011
0100
0000
1000
0110
0000
0000
0011
0000
0001
0010
0100
,  // measure 54
0000
0010
0001
0010
0000
1100
0000
0100
0010
0001
0010
0000
0010
0001
0100
1000
,  // measure 55
0000
0110
0000
0001
0010
0000
0011
0100
0010
0000
0010
0000
0100
1000
0100
0010
,  // measure 56
0000
0010
0000
0000
0000
0010
0000
0000
0010
0000
0100
0000
0010
0000
1000
0100
,  // measure 57
0010
0000
0011
0000
0001
0010
0100
0000
0101
1010
0000
1001
0000
0110
0000
0101
,  // measure 58
0000
1001
0000
0110
0000
1001
0010
0100
0000
1001
0110
0000
1001
0000
0110
0000
,  // measure 59
1001
0110
0000
1001
0000
0110
0000
1001
0110
0000
0101
0000
0101
0000
1010
1000
,  // measure 60
0001
0110
0000
1001
0000
1001
0000
0110
0000
0101
0000
1001
0000
0110
0001
0000
,  // measure 61
0001
0000
0000
0000
0000
0000
0001
0000
0000
0000
0000
0000
0001
0010
0100
0000
,  // measure 62
1110
0000
0011
0000
0000
0011
0000
0000
0010
0000
0011
0000
0100
1000
0100
0010
,  // measure 63
0000
0011
0000
0000
0011
0000
0010
0000
0100
0011
0000
0000
0011
0100
1000
0110
,  // measure 64
0000
0001
0010
0000
0011
0000
0000
0111
1000
0100
1000
0100
0010
0000
0011
0000
,  // measure 65
0011
0000
0000
0011
0100
0000
1000
0110
0000
0011
0000
0000
0011
0000
0100
0011
,  // measure 66
0100
0010
0100
0010
1000
0100
0010
0001
0010
0100
0001
0100
0001
0010
1000
0010
,  // measure 67
0000
0100
0001
0000
0101
0010
0000
0001
0110
0111
0000
0101
0101
0000
0010
0000
,  // measure 68
0001
0010
0100
1000
0110
0001
0010
0000
0011
0100
0010
0100
0000
0110
0010
0000
,  // measure 69
0011
0000
0011
0100
1000
0100
0010
0000
0010
0001
0010
0000
0011
0000
0100
1010
,  // measure 70
0100
0010
0000
0001
0010
0000
0011
0000
0011
0000
0100
1000
0110
0000
0010
0000
,  // measure 71
0011
0000
0011
0000
0000
0111
0101
0000
1010
0000
1001
0100
0001
0110
0000
1001
,  // measure 72
0110
0000
0101
1001
0000
1010
0100
0001
0000
0000
0101
0000
0000
1010
0000
0000
,  // measure 73
0101
0000
0101
0000
1010
0000
0000
0101
0000
0000
0000
0000
0000
0000
0000
0000
;
